Details for this torrent 

Shuddh Desi Romance 2013 Hindi Movies HDSCamRip XviD New Source
Type:
Video > Movies
Files:
2
Size:
706.7 MiB (741029630 Bytes)
Uploaded:
2013-09-07 06:30:14 GMT
By:
basicssom
Seeders:
15
Leechers:
3
Comments
4  

Info Hash:
 
43D2CF8D6D987836029C34B8A3FA26CCEB7D3AF2




(Problems with magnets links are fixed by upgrading your torrent client!)
 http://users2.jabry.com/myimghost/logo.jpg

Shuddh Desi Romance 2013 Hindi Movies HDSCamRip XviD New Source +Sample ~ ☻rDX☻

Screen Shots :
 
http://myimghosting.serveftp.com/13/ShuddhDesiRomance.html
 
http://myimghost.cwahi.net/ShuddhDesiRomance.html

All rDX torrents are Seeding From the 1Gbps Seedbox 24X7
 
http://users2.jabry.com/myimghost/ShuddhDesiRomance/ShuddhDesiRomance.jpg
 
http://users2.jabry.com/myimghost/ShuddhDesiRomance/ShuddhDesiRomance1.jpg
 
http://users2.jabry.com/myimghost/ShuddhDesiRomance/ShuddhDesiRomance2.jpg

Format                                   : AVI
Format/Info                              : Audio Video Interleave
File size                                : 682 MiB
Duration                                 : 2h 10mn
Overall bit rate                         : 728 Kbps
Writing library                          : MPlayer

Video
ID                                       : 0
Format                                   : MPEG-4 Visual
Format profile                           : Advanced Simple@L5
Format settings, BVOP                    : 2
Format settings, QPel                    : No
Format settings, GMC                     : No warppoints
Format settings, Matrix                  : Default (H.263)
Codec ID                                 : XVID
Codec ID/Hint                            : XviD
Duration                                 : 2h 10mn
Bit rate                                 : 594 Kbps
Width                                    : 576 pixels
Height                                   : 208 pixels
Display aspect ratio                     : 2.769
Frame rate                               : 25.000 fps
Color space                              : YUV
Chroma subsampling                       : 4:2:0
Bit depth                                : 8 bits
Scan type                                : Progressive
Compression mode                         : Lossy
Bits/(Pixel*Frame)                       : 0.198
Stream size                              : 557 MiB (82%)
Writing library                          : XviD 1.2.1 (UTC 2008-12-04)

Audio
ID                                       : 1
Format                                   : AC-3
Format/Info                              : Audio Coding 3
Mode extension                           : CM (complete main)
Format settings, Endianness              : Big
Codec ID                                 : 2000
Duration                                 : 2h 10mn
Bit rate mode                            : Constant
Bit rate                                 : 128 Kbps
Channel(s)                               : 2 channels
Channel positions                        : Front: L R
Sampling rate                            : 48.0 KHz
Bit depth                                : 16 bits
Compression mode                         : Lossy
Stream size                              : 120 MiB (18%)
Alignment                                : Split accross interleaves
Interleave, duration                     : 500 ms (12.50 video frames)
Interleave, preload duration             : 500 ms		

Comments

Hey Bollywood - go fucking die. PLEASE! What the fuck?????
U get ur mthr fc*'d ! Jack A$$ !
a? v?
a?v?anyone